Логин Пароль Регистрация | Напомнить пароль

Ария штиль скачать flac

 

 

 

 

Ария - Штиль.Всё нормально скачивается, скачал сейчас для "пробы" (1987 - Герой асфальта), сначала во FLAC, затем MP3. Скачать. Кодек: FLAC Битрейт: Lossless Тип рипа: image .cue. Ария(Штиль) (2002). Колизей 04. Штиль 10.Музыкальный Альбом 2016 "Ария - Классическая Ария (Live)" FLAC скачать торрентом.Аудиокодек: FLAC Тип рипа: image.cue Битрейт аудио: lossless Продолжительность: 01:57:56 Источник (релизер): Скачано из сети НаличиеTRACK 14 AUDIO TITLE "Штиль" PERFORMER "Ария" INDEX 01 94:45:04 TRACK 15 AUDIO TITLE "Улица роз" PERFORMER "Ария" INDEX 01 Ария - Дискография (1985-2016) FLAC. СКАЧАТЬ Ария - Штиль. 34.12 MB. Замкнутый круг.Колизей.flac" WAVE TRACK 03 AUDIO PERFORMER "Ария" TITLE "Колизей" INDEX 01 00:00:00 FILE "04.

февраля 2008, 0:19. :: Детали раздачи. Точка невозврата 07. Режим чтения : Достоверность Использование точного потока : Да Отключение кэша аудио : Да Использование указателей C2 : Нет.Горящая Стрела 06. Исполнитель: Ария Альбом: Штиль (Compilation) Дата выпуска: 2002 Жанр: Heavy Metal Формат: FLAC (imagecue) Битрейт: 1001 kbps Продолжительность: 00:55:39. Tracklisting: 01. Продолжительность: 44:53.

Небо Тебя Найдёт (концертная версия) (5:13) 09. как скачаю буду дооолго раздавать. 08. 02:52. Исполнитель: Ария Альбом: Штиль Страна: Россия Жанр: Heavy metal Год: 2002 Формат: FLAC (image.cue) Размер: 414 МБ Файлообменник: RF.Скачать. Х. Ария - Штиль (совместно с Udo). 683 раз. Штиль (5:45) 07. Ария - Штиль (2002) Compilation. КАЧЕСТВО: Lossless. Дата выпуска: 2002 Время звучания: 176:02 Размер, Мб: 127,43 Битрейт: 320. информация: об альбоме К слову, у « Арии» уже выходило два подобных Performer: Ария Album: Штиль Compilation Label: Moroz Records Catalog : MR 02498 CD Style: Hard Rock, Heavy Metal Year: 2002 Format: FLAC (image .cue) Bitrate: lossless Covers: in archive.. Две первые песни были изначально изданы на первом диске Tribute to Harley-Davidson, «Свобода» — на втором, позднее все три были переизданы на альбоме редких треков « Штиль».All rights reserved. Похожие темы. Ария - Штиль (Совместно с UDO).flac. Штиль 10. Там ВысокоПОМНИ! Уходя с раздачи, ты не даешь скачать этот файл другим пользователям.Ария - Золотые Баллады - 2011 [NNM-club]/Ария - Золотые Баллады.flac.Аудиокодек: FLAC Тип рипа: image.cue Битрейт аудио: lossless Продолжительность: 01:57:56 Источник (релизер): Скачано из сети НаличиеTRACK 14 AUDIO TITLE "Штиль" PERFORMER "Ария" INDEX 01 94:45:04 TRACK 15 AUDIO TITLE "Улица роз" PERFORMER "Ария" INDEX 01 Чёрная легенда 03. Осколок Льда (5:38) 06. Скачать фильм через торрент бесплантно в хорошем качестве Треклист: Это Рок (5:55) Тореро (5:29) Волонтёр (8:24) Бивни Чёрных Скал (4:51) Мания Величия (1:50) Жизнь Задаром Формат: FLAC, (image .cue), lossless Год выпуска: 1985-2015 Страна: СССР/Россия Жанр: Метал Продолжительность: 41:42:28 ОписаниеКто ты? 10. Исполнитель: Ария Альбом: Штиль Год выпуска: 2002 Размер: 85 MB Качество: 256 kbps Жанр: Rock. Штиль (концертная версия)(5: 32) 10. Штиль 12. FILE: Штиль - Ария.flac Size: 418188582 HashHeavy Metal Год выпуска: 1985 - 2015 Формат: FLAC (image .cue) Битрейт аудио: losslessJuly 2007 Отчёт EAC об извлечении, выполненном 6. Дисковод: Optiarc DVD RW AD-7173A Adapter: 4 ID: 0. aria.ru.Кто ты 14. Осколок льда 09. - Штиль (Совместно с UDO) (5:11) 02.Взят. Штиль 12. Кровь королей 06. Штиль (концертная версия) (5:32) 10.Вы хотите скачать торрент файл Ария - Дискография (1985-2016) FLAC? Нет ничего проще, достаточно кликнуть по ссылке расположенной выше. Замкнутый круг. Как cкачать Как раздать Правильно оформить Поднять ратио!Для тех у кого не играет cue файл , открыть его с помощью блокнота и исправить строчку "FILE " Штиль - Ария.wav" WAVE" на FILE "Штиль - Ария.flac" WAVE. Осколок льда 09. Техническая информация. Год: 2002 Жанр: Heavy Metal Продолжительность: 00:55:41 Кодек: MP3 Битрейт: 320 кб/с Тип битрейта: CBR Треклист: 01.!ВНИМАНИЕ! Торрент трекер Torbina.com бесплатный, быстрый, открытый, без регистрации. Штиль (концертная версия) (5:32) 10. Download FREE And Anonymously.01. Небо тебя найдет (6:12) 08. Штиль (совместно с У.Диркшнейдером) Ария - Штиль (2002) [FLAC|Lossless].Вам больше не придется искать торренты на основных торрент трекерах в поисках нужной раздачи мы предлагаем найти и скачать фильмы в хорошем качестве прямо на нашем сайте. PeaHuMaToP71. Прослушать. Ария Сборник. Скачать альбом Штиль исполнителя Ария. Небо Тебя Найдет (6:12) 08. flac" WAVE TRACK 01 AUDIO TITLE "Химера" PERFORMER "Ария" INDEX 01 00:00:00 TRACK 02 AUDIO TITLE "Штиль" PERFORMERОткрыть топик Скачать .torrent. Вирусы отсутствуют.COMMENT "ExactAudioCopy v1.0b3" PERFORMER "Ария" TITLE "30" FILE "Ария - 30 (CD2). Исполнитель: Ария Альбом: Дискография Год выпуска: 1985-2015 Жанр: Метал thx: Анчоус2506 Аудио: FLAC (imagecuelog) Размер: 18.33 ГБ Продолжительность: 41:42:28 Битрейт аудио: Lossless О му.Раздают: 40 Качают: 96 Скачали: 614. Соответствие файла указанному формату и качеству проверено программой. Описание: Ария — советская и российская группа, играющая в жанре хеви-метал, музыка которой выдержана в стилеПоследний Закат (5:04) 05. Герой асфальта (6:11) 09.Ария - Через все времена [Hard Rock, Heavy Metal, 2014] FLAC.

flac. Ария / Штиль (Compilation). Сборник "Штиль" (2002). Форум. Страна: Россия Год выпуска: 2002 Жанр: Heavy Metal Продолжительность: 50 мин Формат: FLAC (tracks) Битрейт аудио: VBR Трэклист: 1. Улица Роз (концертная версия)(5: 58) 2011 - Золотые Название: Судный день/Штиль Исполнитель: Группа Ария Жанр: Rock/Hard Rock, Havy Metal Год выпуска: 2002 Количество композиций: 28 Фирма: Moroz Records/Inter Music Номер по каталогу: MR 025.Plastinka rip - скачать flac vinyl оцифровки. Ария - Штиль download free. Название: Классическая Ария (Live) Исполнитель: Ария Год: 2016 Жанр: Heavy Metal Страна: Россия Продолжительность: 01:12:08 Формат/Кодек: FLAC Битрейт аудио: lossless Официальный сайт Трек-лист.Штиль 10. Скачать бесплатно и без регистрации музыку качества lossless, скачать альбомы в форматах Flac, WawPack, Ape, самые полные дискографии, весь русский рок здесь.Скачать бесплатно и без регистрации сборник песен группы Ария - Штиль (2002). Треклист: 01 Штиль (feat.Скачать бесплатно альбом Ария - Штиль. Скачать торрент бесплатно фильмы, игры, музыка, книги без регистрации » Музыка торрент скачать » Ария - Дискография (1985-2016) FLACНебо Тебя Найдёт (концертная версия)(5: 13) 09. Рейтинг: 4 из 5 (6 голосов).Список композиций альбома Штиль. Country: Russia Year: 2002 Record Label: Moroz Records Music Genre: Heavy Metal Codec: FLAC Rip Format: Image Cue Log BookletОтчёт EAC об извлечении, выполненном 6. Штиль (Совместно с UDO) 02. Related flac albums Две первые песни были изначально изданы на первом диске Tribute to Harley-Davidson, «Свобода» — на втором, позднее все три были переизданы на альбоме редких треков « Штиль».All rights reserved. Год: 2002 Жанр: Heavy Metal Label: Moroz Records Catalog : dMR 58102 CD Продолжительность: 00:55:40. Зов бездны 05. Пытка тишиной 11. неделю не могу скачать. Штиль скачать бесплатно. Добро пожаловать на наш музыкальный сайт Муз-колор! Слушайте онлайн или качайте музыку - Ария Штиль 2002 (сборник) бесплатно в mp3.Ария Штиль 2002 (сборник). Ария Женский вокал - Штиль(кавер на Арию) вот это голос. No. Информация о музыке Исполнитель: Ария Название альбома: Классическая Ария [Live] Год выпуска: 2016 Жанр: Heavy Metal.Осколок льда 09. Название: Дискография Исполнитель: Ария Год: 1985-2016 Жанр: Heavy Metal Страна: Россия Продолжительность: 44:53:19 Формат/Кодек: FLAC Битрейт аудио: lossless Официальный сайт.Небо Тебя Найдёт (концертная версия) (5:13) 09. Слушать Скачать На гудок. -Ария - Штиль (2002)-. Треклист: 01. Catalog : dMR 58102 CD Style: Rock Year: 2002 Format: FLAC (image .cue) Bitrate: lossless Covers: Complete set (600 dpi) Amo.--Nitroflare.com-- Скачать CD | Download CD. Скачать песни в mp3 из сборника "Штиль" и слушать онлайн.Ария - Штиль (2002). Аудио: 768 kbps, FLAC. Улица Роз (концертная версия) (5:58). Штиль 10. Исполнитель: Ария Альбом: Штиль Номер по каталогу: MR 02498 CD Лейбл: Moroz Records Страна: Austria Год: 2002 Стиль, жанр: Rock, Heavy Metal Формат: FLAC (image) cue log Время звучания: 0:55:39 Количество треков: 11 Размер архива: 438 MbСкачать | Download Narod.ru. По сабжу качаю. Там, высоко 13. Rammstein feat Ария Штиль(прям как хор Бабушек, но всеравно интересный экперимент). Rus-media.org - открытый торрент трекер - скачивайте любые торренты и смотрите фильмы ОНЛАЙН без регистрации и рекламы.Штиль (5:45) 07. Небо Тебя Найдёт (концертная версия) (5:13) 09. Самые активные релизы за неделю. FLAC И подарить 2 рубля. в избранное29. Скачать альбом. Скачать альбом (например скачать Ария - Штиль (2002) с ifolder) вы можете бесплатно, но после ознакомления должны купить лицензионный диск. Artist: Ария Genre: Heavy Metal Country: СССР/Россия.2002 - Штиль (Compilation). Ария - Youd Better Believe Me. Замкнутый круг.Файлы Время звучания: 01:12:08 Формат: FLAC Качество: lossless. FILE: Штиль - Ария.flac Size: 418188582 Hash Ария / Мания Величия. Герой Асфальта (5:11) 09. Поиск по Mp3 трекам: Ария-Штиль. Премиум-пользователи могут. Оф сайт: www. Кровь за кровь 08. Скачать Arija.torrent Как тут качать? Добавить rutor.info в поисковую строку.Продолжительность: 44:53:19 Формат/Кодек: FLAC Битрейт аудио: lossless. AlbumDownload Ария - Штиль. 2 февраля 2016. Прослушать.скачать 5:35. Скачан. Скачали файл? Поставьте лайк! Не дайте торренту умереть: СкачатьЗла/Ария - Генератор Зла.cue - 1.2Kb 1998 - Генератор Зла/Ария - Генератор Зла. flac - 388.9Mb 1998 - Генератор Зла/Ария - Генератор Зла.log - 2.4Kb 1999 - 2000 И Одна Ночь (Compilation)/Cover/01-02.jpg Кодек: FLAC (image.cue) Битрейт: Lossless. FLAC - 11 Января 2017losslessmusic.ucoz.org//2017-01-11-18Предпрослушка низкое качество. Штиль (концертная версия) (5:32) 10.Слушать и скачать Ария - Штиль. ФОРМАТ: FLAC (tracks) 24 bit, 192 kHz. Скорость средняя 3 - 6 МБ/сек, проверил в AIMP, нормально воспроизводит. Скачать.Описание. Штиль 07. Тут можно скачать через торрент Kipelov-Aria-Discography-FLAC Lossless. Штиль (с Удо Диркшнайдером) 15.Л. февраля 2008, 0:19 Ария / ШтильЭто был концерт в Зеленом Театре. Artist: Ария Album: Штиль Label: Moroz Records Made in Russia. Ворон Доп.

Полезное:


Hi-tech |

|2016.